osu file format v14

[General]
AudioFilename: Shakugan no Shana II Ending 2.mp3
AudioLeadIn: 1500
PreviewTime: 44577
Countdown: 0
SampleSet: Normal
StackLeniency: 0.7
Mode: 1
LetterboxInBreaks: 0
WidescreenStoryboard: 0

[Editor]
DistanceSpacing: 1
BeatDivisor: 4
GridSize: 32
TimelineZoom: 1

[Metadata]
Title:Sociometry
TitleUnicode:Sociometry
Artist:KOTOKO
ArtistUnicode:KOTOKO
Creator:Inyuschan
Version:Dekaane's Oni
Source:灼眼のシャナⅡ
Tags:Shakugan no Shana II Ending ED2 Burning-Eyed TV Size Gaia CSLMVenezuela CSLM p_a_n DakeDekaane
BeatmapID:750928
BeatmapSetID:335356

[Difficulty]
HPDrainRate:6
CircleSize:4
OverallDifficulty:6
ApproachRate:7
SliderMultiplier:1.4
SliderTickRate:1

[Events]
//Background and Video events
0,0,"BG.jpg",0,0
//Break Periods
//Storyboard Layer 0 (Background)
//Storyboard Layer 1 (Fail)
//Storyboard Layer 2 (Pass)
//Storyboard Layer 3 (Foreground)
//Storyboard Sound Samples

[TimingPoints]
739,422.535211267606,4,1,0,80,1,0
44682,-100,4,1,0,80,0,1
75105,-100,4,1,0,80,0,0

[Colours]
Combo1 : 154,168,104
Combo2 : 207,88,88
Combo3 : 124,142,216
Combo4 : 216,142,75
Combo5 : 125,162,215

[HitObjects]
256,192,739,5,0,0:0:0:0:
256,192,1161,1,0,0:0:0:0:
256,192,1584,1,0,0:0:0:0:
256,192,2006,1,8,0:0:0:0:
256,192,2429,1,0,0:0:0:0:
256,192,2851,1,0,0:0:0:0:
256,192,3274,1,8,0:0:0:0:
256,192,3485,1,0,0:0:0:0:
256,192,3696,1,8,0:0:0:0:
256,192,4119,1,0,0:0:0:0:
256,192,4541,1,0,0:0:0:0:
256,192,4964,1,0,0:0:0:0:
256,192,5386,1,8,0:0:0:0:
256,192,5598,1,8,0:0:0:0:
256,192,5809,1,0,0:0:0:0:
256,192,6231,1,0,0:0:0:0:
256,192,6654,1,8,0:0:0:0:
256,192,6865,1,0,0:0:0:0:
256,192,6971,1,0,0:0:0:0:
256,192,7076,1,8,0:0:0:0:
256,192,7499,1,0,0:0:0:0:
256,192,7921,1,0,0:0:0:0:
256,192,8344,1,0,0:0:0:0:
256,192,8766,1,8,0:0:0:0:
256,192,8978,1,0,0:0:0:0:
256,192,9189,1,8,0:0:0:0:
256,192,9611,1,0,0:0:0:0:
256,192,10034,1,8,0:0:0:0:
256,192,10245,1,0,0:0:0:0:
256,192,10456,1,8,0:0:0:0:
256,192,10879,1,0,0:0:0:0:
256,192,11301,1,0,0:0:0:0:
256,192,11513,1,8,0:0:0:0:
256,192,11724,1,0,0:0:0:0:
256,192,12146,1,8,0:0:0:0:
256,192,12358,1,8,0:0:0:0:
256,192,12569,12,0,13837,0:0:0:0:
256,192,14260,6,0,B|512:192|512:192|512:0,1,420,,,0:0:0:0:
256,192,15950,1,0,0:0:0:0:
256,192,16267,1,0,0:0:0:0:
256,192,16372,1,0,0:0:0:0:
256,192,16584,1,8,0:0:0:0:
256,192,16795,1,0,0:0:0:0:
256,192,17006,1,0,0:0:0:0:
256,192,17112,1,0,0:0:0:0:
256,192,17217,1,8,0:0:0:0:
256,192,17640,1,0,0:0:0:0:
256,192,17957,1,0,0:0:0:0:
256,192,18062,1,0,0:0:0:0:
256,192,18274,1,8,0:0:0:0:
256,192,18485,1,0,0:0:0:0:
256,192,18696,1,8,0:0:0:0:
256,192,18802,1,8,0:0:0:0:
256,192,18908,1,8,0:0:0:0:
256,192,19330,1,0,0:0:0:0:
256,192,19647,1,0,0:0:0:0:
256,192,19753,1,0,0:0:0:0:
256,192,19964,1,8,0:0:0:0:
256,192,20175,1,0,0:0:0:0:
256,192,20386,1,8,0:0:0:0:
256,192,20492,1,8,0:0:0:0:
256,192,20598,1,0,0:0:0:0:
256,192,20809,1,8,0:0:0:0:
256,192,21020,1,0,0:0:0:0:
256,192,21231,1,0,0:0:0:0:
256,192,21337,1,0,0:0:0:0:
256,192,21443,1,0,0:0:0:0:
256,192,21654,1,8,0:0:0:0:
256,192,21865,1,0,0:0:0:0:
256,192,21971,1,0,0:0:0:0:
256,192,22077,1,8,0:0:0:0:
256,192,22182,1,8,0:0:0:0:
256,192,22288,1,8,0:0:0:0:
256,192,22710,1,0,0:0:0:0:
256,192,23027,1,0,0:0:0:0:
256,192,23132,1,0,0:0:0:0:
256,192,23344,1,8,0:0:0:0:
256,192,23555,1,0,0:0:0:0:
256,192,23767,1,8,0:0:0:0:
256,192,23872,1,8,0:0:0:0:
256,192,23977,1,0,0:0:0:0:
256,192,24189,1,8,0:0:0:0:
256,192,24400,1,0,0:0:0:0:
256,192,24612,1,0,0:0:0:0:
256,192,24717,1,0,0:0:0:0:
256,192,24822,1,8,0:0:0:0:
256,192,25034,1,8,0:0:0:0:
256,192,25245,1,0,0:0:0:0:
256,192,25351,1,0,0:0:0:0:
256,192,25457,1,0,0:0:0:0:
256,192,25562,1,0,0:0:0:0:
256,192,25668,1,8,0:0:0:0:
256,192,26090,1,0,0:0:0:0:
256,192,26302,1,0,0:0:0:0:
256,192,26408,1,0,0:0:0:0:
256,192,26513,1,8,0:0:0:0:
256,192,26724,1,0,0:0:0:0:
256,192,26830,1,0,0:0:0:0:
256,192,26936,1,0,0:0:0:0:
256,192,27146,1,0,0:0:0:0:
256,192,27253,1,0,0:0:0:0:
256,192,27358,1,8,0:0:0:0:
256,192,27569,1,8,0:0:0:0:
256,192,27781,8,0,29048,0:0:0:0:
256,192,29471,5,4,0:0:0:0:
256,192,29788,1,0,0:0:0:0:
256,192,29893,1,8,0:0:0:0:
256,192,30105,1,0,0:0:0:0:
256,192,30210,1,0,0:0:0:0:
256,192,30316,1,0,0:0:0:0:
256,192,30422,1,0,0:0:0:0:
256,192,30527,1,0,0:0:0:0:
256,192,30739,1,8,0:0:0:0:
256,192,30950,1,8,0:0:0:0:
256,192,31161,1,0,0:0:0:0:
256,192,31478,1,0,0:0:0:0:
256,192,31583,1,8,0:0:0:0:
256,192,31795,1,0,0:0:0:0:
256,192,31900,1,0,0:0:0:0:
256,192,32006,1,0,0:0:0:0:
256,192,32112,1,0,0:0:0:0:
256,192,32217,1,0,0:0:0:0:
256,192,32429,1,8,0:0:0:0:
256,192,32640,1,0,0:0:0:0:
256,192,32851,1,0,0:0:0:0:
256,192,33168,1,0,0:0:0:0:
256,192,33274,1,8,0:0:0:0:
256,192,33485,1,0,0:0:0:0:
256,192,33591,1,0,0:0:0:0:
256,192,33696,1,0,0:0:0:0:
256,192,34013,1,0,0:0:0:0:
256,192,34119,1,8,0:0:0:0:
256,192,34330,1,0,0:0:0:0:
256,192,34436,1,0,0:0:0:0:
256,192,34541,1,0,0:0:0:0:
256,192,34858,1,0,0:0:0:0:
256,192,34964,1,8,0:0:0:0:
256,192,35175,1,0,0:0:0:0:
256,192,35386,1,8,0:0:0:0:
256,192,35492,1,8,0:0:0:0:
256,192,35598,1,8,0:0:0:0:
256,192,35703,1,8,0:0:0:0:
256,192,35809,1,8,0:0:0:0:
256,192,36231,1,4,0:0:0:0:
256,192,36548,1,0,0:0:0:0:
256,192,36653,1,8,0:0:0:0:
256,192,36865,1,0,0:0:0:0:
256,192,36970,1,0,0:0:0:0:
256,192,37076,1,0,0:0:0:0:
256,192,37182,1,0,0:0:0:0:
256,192,37287,1,0,0:0:0:0:
256,192,37499,1,0,0:0:0:0:
256,192,37710,1,8,0:0:0:0:
256,192,37921,1,0,0:0:0:0:
256,192,38238,1,0,0:0:0:0:
256,192,38343,1,8,0:0:0:0:
256,192,38555,1,0,0:0:0:0:
256,192,38660,1,0,0:0:0:0:
256,192,38766,1,0,0:0:0:0:
256,192,38872,1,0,0:0:0:0:
256,192,38977,1,0,0:0:0:0:
256,192,39189,1,0,0:0:0:0:
256,192,39400,1,8,0:0:0:0:
256,192,39611,1,0,0:0:0:0:
256,192,39929,1,0,0:0:0:0:
256,192,40034,1,8,0:0:0:0:
256,192,40245,1,0,0:0:0:0:
256,192,40351,1,0,0:0:0:0:
256,192,40456,1,8,0:0:0:0:
256,192,40773,1,0,0:0:0:0:
256,192,40879,1,8,0:0:0:0:
256,192,41090,1,0,0:0:0:0:
256,192,41196,1,0,0:0:0:0:
256,192,41301,1,8,0:0:0:0:
256,192,41618,1,0,0:0:0:0:
256,192,41724,1,8,0:0:0:0:
256,192,41935,1,0,0:0:0:0:
256,192,42147,12,0,42992,0:0:0:0:
256,192,44682,5,0,0:0:0:0:
256,192,44788,1,0,0:0:0:0:
256,192,44893,1,0,0:0:0:0:
256,192,45105,1,8,0:0:0:0:
256,192,45316,1,0,0:0:0:0:
256,192,45422,1,0,0:0:0:0:
256,192,45527,1,0,0:0:0:0:
256,192,45739,1,0,0:0:0:0:
256,192,45950,1,8,0:0:0:0:
256,192,46161,1,0,0:0:0:0:
256,192,46267,1,0,0:0:0:0:
256,192,46372,1,0,0:0:0:0:
256,192,46584,1,0,0:0:0:0:
256,192,46689,1,8,0:0:0:0:
256,192,46795,1,0,0:0:0:0:
256,192,47006,1,8,0:0:0:0:
256,192,47217,1,0,0:0:0:0:
256,192,47323,1,0,0:0:0:0:
256,192,47429,1,0,0:0:0:0:
256,192,47534,1,0,0:0:0:0:
256,192,47640,1,8,0:0:0:0:
256,192,48062,1,0,0:0:0:0:
256,192,48168,1,0,0:0:0:0:
256,192,48273,1,0,0:0:0:0:
256,192,48485,1,8,0:0:0:0:
256,192,48696,1,0,0:0:0:0:
256,192,48802,1,0,0:0:0:0:
256,192,48907,1,0,0:0:0:0:
256,192,49119,1,0,0:0:0:0:
256,192,49330,1,8,0:0:0:0:
256,192,49541,1,8,0:0:0:0:
256,192,49647,1,8,0:0:0:0:
256,192,49753,1,0,0:0:0:0:
256,192,49964,1,0,0:0:0:0:
256,192,50069,1,8,0:0:0:0:
256,192,50175,1,0,0:0:0:0:
256,192,50386,1,8,0:0:0:0:
256,192,50597,1,0,0:0:0:0:
256,192,50703,1,0,0:0:0:0:
256,192,50809,1,8,0:0:0:0:
256,192,50914,1,8,0:0:0:0:
256,192,51020,1,0,0:0:0:0:
256,192,51443,1,0,0:0:0:0:
256,192,51654,1,8,0:0:0:0:
256,192,51760,1,8,0:0:0:0:
256,192,51865,1,0,0:0:0:0:
256,192,52077,1,8,0:0:0:0:
256,192,52182,1,8,0:0:0:0:
256,192,52288,1,0,0:0:0:0:
256,192,52499,1,0,0:0:0:0:
256,192,52710,1,8,0:0:0:0:
256,192,53133,1,0,0:0:0:0:
256,192,53344,1,8,0:0:0:0:
256,192,53450,1,8,0:0:0:0:
256,192,53555,1,0,0:0:0:0:
256,192,53767,1,8,0:0:0:0:
256,192,53978,1,0,0:0:0:0:
256,192,54084,1,0,0:0:0:0:
256,192,54189,1,0,0:0:0:0:
256,192,54295,1,0,0:0:0:0:
256,192,54400,1,8,0:0:0:0:
256,192,54823,1,0,0:0:0:0:
256,192,55034,1,0,0:0:0:0:
256,192,55140,1,0,0:0:0:0:
256,192,55246,1,0,0:0:0:0:
256,192,55457,1,8,0:0:0:0:
256,192,55668,1,0,0:0:0:0:
256,192,55879,1,0,0:0:0:0:
256,192,55985,1,0,0:0:0:0:
256,192,56091,1,0,0:0:0:0:
256,192,56302,1,8,0:0:0:0:
256,192,56513,1,0,0:0:0:0:
256,192,56724,1,8,0:0:0:0:
256,192,56830,1,8,0:0:0:0:
256,192,56936,1,0,0:0:0:0:
256,192,57147,1,8,0:0:0:0:
256,192,57358,1,0,0:0:0:0:
256,192,57464,1,8,0:0:0:0:
256,192,57675,1,8,0:0:0:0:
256,192,57781,1,0,0:0:0:0:
256,192,57992,1,8,0:0:0:0:
256,192,58098,1,8,0:0:0:0:
256,192,58203,1,0,0:0:0:0:
256,192,58309,1,0,0:0:0:0:
256,192,58414,1,0,0:0:0:0:
256,192,58626,1,8,0:0:0:0:
256,192,58837,1,0,0:0:0:0:
256,192,59048,1,0,0:0:0:0:
256,192,59154,1,0,0:0:0:0:
256,192,59260,1,0,0:0:0:0:
256,192,59471,1,8,0:0:0:0:
256,192,59682,1,0,0:0:0:0:
256,192,59893,1,0,0:0:0:0:
256,192,59999,1,0,0:0:0:0:
256,192,60210,1,8,0:0:0:0:
256,192,60316,1,0,0:0:0:0:
256,192,60527,1,8,0:0:0:0:
256,192,60738,1,0,0:0:0:0:
256,192,60844,1,8,0:0:0:0:
256,192,60950,1,0,0:0:0:0:
256,192,61055,1,0,0:0:0:0:
256,192,61161,1,8,0:0:0:0:
256,192,61583,1,0,0:0:0:0:
256,192,61689,1,0,0:0:0:0:
256,192,61794,1,0,0:0:0:0:
256,192,62006,1,8,0:0:0:0:
256,192,62217,1,0,0:0:0:0:
256,192,62428,1,0,0:0:0:0:
256,192,62534,1,0,0:0:0:0:
256,192,62640,1,0,0:0:0:0:
256,192,62851,1,8,0:0:0:0:
256,192,63062,1,8,0:0:0:0:
256,192,63273,1,0,0:0:0:0:
256,192,63379,1,8,0:0:0:0:
256,192,63590,1,8,0:0:0:0:
256,192,63696,1,0,0:0:0:0:
256,192,63907,1,8,0:0:0:0:
256,192,64118,1,0,0:0:0:0:
256,192,64224,1,8,0:0:0:0:
256,192,64330,1,8,0:0:0:0:
256,192,64435,1,8,0:0:0:0:
256,192,64541,1,0,0:0:0:0:
256,192,64964,1,0,0:0:0:0:
256,192,65175,1,8,0:0:0:0:
256,192,65281,1,8,0:0:0:0:
256,192,65386,1,0,0:0:0:0:
256,192,65598,1,8,0:0:0:0:
256,192,65703,1,8,0:0:0:0:
256,192,65809,1,0,0:0:0:0:
256,192,65915,1,8,0:0:0:0:
256,192,66126,1,8,0:0:0:0:
256,192,66231,1,0,0:0:0:0:
256,192,66443,1,8,0:0:0:0:
256,192,66654,1,0,0:0:0:0:
256,192,66865,1,8,0:0:0:0:
256,192,66971,1,8,0:0:0:0:
256,192,67076,1,0,0:0:0:0:
256,192,67288,1,8,0:0:0:0:
256,192,67499,1,0,0:0:0:0:
256,192,67605,1,8,0:0:0:0:
256,192,67710,1,0,0:0:0:0:
256,192,67816,1,0,0:0:0:0:
256,192,67921,1,8,0:0:0:0:
256,192,68344,1,0,0:0:0:0:
256,192,68555,1,0,0:0:0:0:
256,192,68661,1,0,0:0:0:0:
256,192,68767,1,0,0:0:0:0:
256,192,68978,1,8,0:0:0:0:
256,192,69189,1,0,0:0:0:0:
256,192,69400,1,8,0:0:0:0:
256,192,69506,1,8,0:0:0:0:
256,192,69612,1,0,0:0:0:0:
256,192,69823,1,8,0:0:0:0:
256,192,70034,2,0,B|512:192|512:192|512:0,1,420,,,0:0:0:0:
256,192,71724,8,0,74682,0:0:0:0:
256,192,75105,5,0,0:0:0:0:
256,192,75210,1,0,0:0:0:0:
256,192,75316,1,0,0:0:0:0:
256,192,75527,1,8,0:0:0:0:
256,192,75739,1,0,0:0:0:0:
256,192,75950,1,8,0:0:0:0:
256,192,76055,1,8,0:0:0:0:
256,192,76161,1,8,0:0:0:0:
256,192,76267,1,8,0:0:0:0:
256,192,76372,1,0,0:0:0:0:
256,192,76584,1,8,0:0:0:0:
256,192,76795,1,0,0:0:0:0:
256,192,77006,1,8,0:0:0:0:
256,192,77217,1,0,0:0:0:0:
256,192,77429,1,8,0:0:0:0:
256,192,77534,1,8,0:0:0:0:
256,192,77640,1,0,0:0:0:0:
256,192,77746,1,0,0:0:0:0:
256,192,77851,1,0,0:0:0:0:
256,192,78062,1,8,0:0:0:0:
256,192,78485,1,0,0:0:0:0:
256,192,78591,1,0,0:0:0:0:
256,192,78696,1,0,0:0:0:0:
256,192,78908,1,8,0:0:0:0:
256,192,79119,1,8,0:0:0:0:
256,192,79330,1,0,0:0:0:0:
256,192,79436,1,0,0:0:0:0:
256,192,79541,1,0,0:0:0:0:
256,192,79647,1,0,0:0:0:0:
256,192,79753,1,0,0:0:0:0:
256,192,79964,1,8,0:0:0:0:
256,192,80175,1,0,0:0:0:0:
256,192,80386,1,8,0:0:0:0:
256,192,80492,1,8,0:0:0:0:
256,192,80598,1,0,0:0:0:0:
256,192,80809,1,8,0:0:0:0:
256,192,81020,1,0,0:0:0:0:
256,192,81126,1,0,0:0:0:0:
256,192,81231,1,8,0:0:0:0:
256,192,81337,1,8,0:0:0:0:
256,192,81443,1,0,0:0:0:0:
256,192,81865,1,0,0:0:0:0:
256,192,81970,1,0,0:0:0:0:
256,192,82076,1,0,0:0:0:0:
256,192,82287,1,8,0:0:0:0:
256,192,82499,1,0,0:0:0:0:
256,192,82710,1,8,0:0:0:0:
256,192,82815,1,8,0:0:0:0:
256,192,82921,1,8,0:0:0:0:
256,192,83027,1,8,0:0:0:0:
256,192,83132,1,0,0:0:0:0:
256,192,83344,1,8,0:0:0:0:
256,192,83555,1,0,0:0:0:0:
256,192,83766,1,8,0:0:0:0:
256,192,83977,1,0,0:0:0:0:
256,192,84189,1,8,0:0:0:0:
256,192,84294,1,8,0:0:0:0:
256,192,84400,1,0,0:0:0:0:
256,192,84506,1,0,0:0:0:0:
256,192,84611,1,0,0:0:0:0:
256,192,84822,1,8,0:0:0:0:
256,192,85246,1,0,0:0:0:0:
256,192,85352,1,0,0:0:0:0:
256,192,85457,1,0,0:0:0:0:
256,192,85669,1,8,0:0:0:0:
256,192,85880,1,8,0:0:0:0:
256,192,86091,1,0,0:0:0:0:
256,192,86197,1,0,0:0:0:0:
256,192,86302,1,0,0:0:0:0:
256,192,86408,1,0,0:0:0:0:
256,192,86514,1,0,0:0:0:0:
256,192,86725,1,8,0:0:0:0:
256,192,86936,1,0,0:0:0:0:
256,192,87147,1,8,0:0:0:0:
256,192,87253,1,8,0:0:0:0:
256,192,87358,1,0,0:0:0:0:
256,192,87569,1,8,0:0:0:0:
256,192,87781,1,0,0:0:0:0:
256,192,87886,1,0,0:0:0:0:
256,192,87992,1,8,0:0:0:0:
256,192,88098,1,8,0:0:0:0:
256,192,88203,1,0,0:0:0:0:
256,192,88309,1,0,0:0:0:0:
256,192,88415,1,8,0:0:0:0:
256,192,88520,1,8,0:0:0:0:
